Anketa

Užitečné návody

Užitečné odkazy




Detaily Torrentu
Název MegaCasting 51. - 14.10.2010 - Šárka (4000)
Torrent MegaCasting 51. - 14.10.2010 - Šárka (4000)
Žádost o ReSeed
Info Hash 8c228e6b29cc519de4e02f658b45db6c8de97d4c
Líbí se mi na facebooku
G+
Popis riginalny nazev: MegaCasting 48. - 11.10.2010 - Andrea (333
Rok vydani: 2010
Delka: 10
Kategorie : Normál
Žánr : XXX

Jméno: Andrea
Věk: 23
Bydliště: Praha
Povolání: fotomodelka s vedlejšákem v baru
Zvláštní znamení: splněný sen všech onanistů a onanistek

Chlapi pojďte sem, pojďte k nám. Ukážeme Vám super kočku, která má všechny parametry, aby se z fleku mohla stát bohyní. Seznamte se, prosím. Tohle je Andrea, ušlechtile vznosná squaw s úžasnou hřívou platinových vlasů. Zodpovědně můžeme prohlásit, že Andrea je jednoznačně nejkrásnější frcinka, která doposud prošla mašinerií našeho Megacastingu. Navíc se ukázala jako usměvavá a velice příjemná holka. Pohovorem prošla s elegancí a při focení, zejména když svlékla svršky a odhalila svojí nebeskou postavu, se naplno projevilo, jak je přímo nabitá vášnivým erotičnem. Určitě se Vám teď potí ruce, zrychluje dech a rozšiřují zornice, když si představíte, že ten foťák a kameru držíte v ruce Vy, co? Andrea má teď v rukách osud celého mužského pokolení v Evropské unii. Pokud přijme nabídku na natočení videotestu, stane se nesmrtelnou, pokud nepřijme, praskne srdce (nebo spíše něco jiného) všem chlapům, co právě mají přilepené oči na monitorech. Andreo, tohle si přece nemůžeš vzít na svědomí.

Bitrate/kodek:
Format                           : Windows Media
File size                        : 228 MiB
Duration                         : 10mn 9s
Overall bit rate mode            : Constant
Overall bit rate                 : 3 140 Kbps
Maximum Overall bit rate         : 3 173 Kbps
Encoded date                     : UTC 2010-10-09 01:26:35.237
SfOriginalFPS                    : 250000

Video
ID                               : 2
Format                           : VC-1
Format profile                   : MP@HL
Codec ID                         : WMV3
Codec ID/Info                    : Windows Media Video 9
Codec ID/Hint                    : WMV3
Description of the codec         : Windows Media Video 9 - Professional
Duration                         : 10mn 9s
Bit rate mode                    : Constant
Bit rate                         : 2 954 Kbps
Width                            : 1 280 pixels
Height                           : 720 pixels
Display aspect ratio             : 16:9
Frame rate                       : 25.000 fps
Bit depth                        : 8 bits
Scan type                        : Progressive
Bits/(Pixel*Frame)               : 0.128
Stream size                      : 215 MiB (94crazy.gif
Language                         : Czech

Audio
ID                               : 1
Format                           : WMA
Format version                   : Version 2
Codec ID                         : 161
Codec ID/Info                    : Windows Media Audio
Description of the codec         : Windows Media Audio 9.2 - 192 kbps, 48 kHz, stereo (A/V) 1-pass CBR
Duration                         : 10mn 9s
Bit rate mode                    : Constant
Bit rate                         : 192 Kbps
Channel(s)                       : 2 channels
Sampling rate                    : 48.0 KHz
Bit depth                        : 16 bits
Stream size                      : 13.9 MiB (6crazy.gif
Language                         : Czech

1 file
Screenshot
Kategorie xXx
Hlasování
  • Currently 5.00/5
Rating: 5.0 out of 5.0 (Votes: 1) For your upload!

Velikost 228.07 MB
Datunm přidání 20/10/2010
Rychlost 0 KB/sec
Down 0 krát
peers seeds: 0, leechers: 0 = 0 peers
Report


klidas 21/10/2010 01.41.22
uploader...nesedi ti nazov torrentu s popisom torrentu...ktory to je teda casting? nvm.gif
emanuel 20/10/2010 12.02.48
smile.gif