Anketa

Užitečné návody

Užitečné odkazy


Reklama

 DMX512 & Elektro
 ZAFI Beton
 LuRy.cz
 Chatujme.cz


Detaily Torrentu
Název UFC.on.ESPN.10.1080p.WEB-DL.H264.Fight
Torrent UFC.on.ESPN.10.1080p.WEB-DL.H264.Fight
Žádost o ReSeed
Info Hash 81fe8cf66dd25466cb0d28387b3cf9c6b3761890
Líbí se mi na facebooku
G+
Obrázek
Popis
UFC.on.ESPN.10.1080p.WEB-DL.H264.Fight


Jazyk: ENG
Titulky: ne
Kvalita zvuku: AAC ENG2,0
Kvalita videa: AVC1920x1080
Rok vydání: 13.06.2020
Délka: 3h42min

General
Complete name                            : G:StahováníUFC.on.ESPN.10.1080p.WEB-DL.H264.Fight.mp4
Format                                   : MPEG-4
Format profile                           : Base Media
Codec ID                                 : isom
File size                                : 9.15 GiB
Duration                                 : 3h 42mn
Overall bit rate mode                    : Variable
Overall bit rate                         : 5 884 Kbps
Writing application                      : Lavf58.12.100

Video
ID                                       : 2
Format                                   : AVC
Format/Info                              : Advanced Video Codec
Format profile                           : High@L4
Format settings, CABAC                   : Yes
Format settings, ReFrames                : 1 frame
Format settings, GOP                     : M=1, N=60
Codec ID                                 : avc1
Codec ID/Info                            : Advanced Video Coding
Duration                                 : 3h 42mn
Bit rate mode                            : Variable
Bit rate                                 : 5 742 Kbps
Maximum bit rate                         : 8 864 Kbps
Width                                    : 1 920 pixels
Height                                   : 1 080 pixels
Display aspect ratio                     : 16:9
Frame rate mode                          : Variable
Frame rate                               : 30.000 fps
Minimum frame rate                       : 29.412 fps
Maximum frame rate                       : 30.303 fps
Color space                              : YUV
Chroma subsampling                       : 4:2:0
Bit depth                                : 8 bits
Scan type                                : Progressive
Bits/(Pixel*Frame)                       : 0.092
Stream size                              : 8.93 GiB (98crazy.gif

Audio
ID                                       : 3
Format                                   : AAC
Format/Info                              : Advanced Audio Codec
Format profile                           : LC
Codec ID                                 : 40
Duration                                 : 3h 42mn
Bit rate mode                            : Variable
Bit rate                                 : 132 Kbps
Maximum bit rate                         : 141 Kbps
Channel(s)                               : 2 channels
Channel positions                        : Front: L R
Sampling rate                            : 48.0 KHz
Compression mode                         : Lossy
Stream size                              : 210 MiB (2crazy.gif

[b]
1 file
Screenshot
Kategorie TVRip
Hlasování
  • Currently 0.00/5
Rating: 0.0 out of 5.0 (Votes: 0) For your upload!

Velikost 9.15 GB
Datunm přidání 14/06/2020
Rychlost 0 KB/sec
Down 0 krát
peers seeds: 0, leechers: 0 = 0 peers
Report


Bez komentářů...