Anketa

Užitečné návody

Užitečné odkazy


Reklama

 DMX512 & Elektro
 ZAFI Beton
 LuRy.cz
 Chatujme.cz


Detaily Torrentu
Název Kouzelníci z Waverly - Film / Wizards of Waverly Place: The Movie (2009)
Torrent Kouzelníci z Waverly - Film / Wizards of Waverly Place: The Movie (2009)
Žádost o ReSeed
Info Hash 7868c942266624c084437bca278d037ae49b0e36
G+
Obrázek
Popis Přeložený název : Kouzelníci z Waverly - Film
Originální název : Wizards of Waverly Place: The Movie
Žánr : Komedie / Rodinný
Rok vydání : 2009
Země původu : USA
Délka / stopáž : 98 min
Zvuk: CZ
Titulky: -
Popis děje z CSFD :
Kouzelnická rodina Russoovic bydlí v New Yorku, vlastní restauraci a žije navenek obyčejný a spořádaný život. Skrývá ovšem jedno velké tajemství – je to rodina kouzelníků. Otec, sám bývalý kouzelník, učí své děti čarodějnickému řemeslu. Alex, Justin a Max jsou ale v pubertě a tak není divu, že se jim občas nějaká ta kouzla úplně nepovedou. Jako třeba Alexe, která ve vzteku pošle během dovolené zlé kouzlo na celou svou rodinu. Zatímco se Max snaží udržet své rodiče pohromadě, Alex s Justinem musí najít bájný Kámen snů, který jediný může toto kouzlo překazit. Hlavní tváří příběhů z Waverly Place je vycházející americká hvězda Selena Gomez.

Obsazení z CSFD :
Režie: Lev L. Spiro
Scénář: Daniel Berendsen
Kamera: David A. Makin
Hudba: Kenneth Burgomaster
Hrají: Selena Gomez, Maria Canals-Barrera, Jake T. Austin, Jennifer Stone, David Henrie, David DeLuise, Marisé Alvarez
Producenti: Kevin Lafferty
Scénografie: Mark Hofeling
Kostýmy: Mona May

Odkaz na CSFD:
http://www.csfd.cz/film/254413-kouzelnici-z-waverly-film/komentare/

Výpis z Mediainfo:
Format                                   : AVI
Format/Info                              : Audio Video Interleave
File size                                : 780 MiB
Duration                                 : 1h 33mn
Overall bit rate mode                    : Variable
Overall bit rate                         : 1 160 Kbps
Writing application                      : MEncoder Sherpya-SVN-r29355-4.5.0
Writing library                          : MPlayer

Video
ID                                       : 0
Format                                   : MPEG-4 Visual
Format profile                           : Simple@L3
Format settings, BVOP                    : No
Format settings, QPel                    : No
Format settings, GMC                     : No warppoints
Format settings, Matrix                  : Default (H.263)
Codec ID                                 : XVID
Codec ID/Hint                            : XviD
Duration                                 : 1h 33mn
Bit rate                                 : 1 024 Kbps
Width                                    : 720 pixels
Height                                   : 400 pixels
Display aspect ratio                     : 16:9
Frame rate                               : 25.000 fps
Color space                              : YUV
Chroma subsampling                       : 4:2:0
Bit depth                                : 8 bits
Scan type                                : Progressive
Compression mode                         : Lossy
Bits/(Pixel*Frame)                       : 0.142
Stream size                              : 688 MiB (88crazy.gif
Writing library                          : XviD 1.2.1 (UTC 2008-12-04)

Audio
ID                                       : 1
Format                                   : MPEG Audio
Format version                           : Version 1
Format profile                           : Layer 3
Mode                                     : Joint stereo
Mode extension                           : MS Stereo
Codec ID                                 : 55
Codec ID/Hint                            : MP3
Duration                                 : 1h 33mn
Bit rate mode                            : Variable
Bit rate                                 : 124 Kbps
Channel(s)                               : 2 channels
Sampling rate                            : 44.1 KHz
Compression mode                         : Lossy
Stream size                              : 83.1 MiB (11crazy.gif
Alignment                                : Aligned on interleaves
Interleave, duration                     : 26 ms (0.65 video frame)
Interleave, preload duration             : 134 ms
Writing library                          : LAME3.98
2 files
Screenshot
Kategorie Xvid
Hlasování
  • Currently 0.00/5
Rating: 0.0 out of 5.0 (Votes: 0) For your upload!

Velikost 779.76 MB
Datunm přidání 10/03/2018
Rychlost 0 KB/sec
Down 6 krát
peers seeds: 0, leechers: 0 = 0 peers
Report


Bez komentářů...